Download Jattu Engineer 2017 Hindi 720p DvDRip x264 AAC ESub Free

Download Jattu Engineer 2017 Hindi 720p DvDRip x264 AAC ESub Free: Download Full Hd Free Worldwide Movies Free of Cost Online. Jattu Engineer 2017 Full Hd Torrent Free,Full movie Download Free HD Highest Qulaity and downloading.

   

Poster

 
iMDB

Imdb Picture Title: Jattu Engineer
Year: 2017
Runtime: 139 minutes
Votes: 2674
Rating: 8.1/10
Language: Hindi
Country: India
All Genres: Comedy
Plot Outline: A teacher works hard to better a village that has poverty, unemployment, and a drug problem.
Tagline: Thuk Laa Ke
Director: Honeypreet Insan
Saint Gurmeet Ram Rahim Singh Ji Insan
Writing By: Saint Gurmeet Ram Rahim Singh Ji Insan,Saint Gurmeet Ram Rahim Singh Ji Insan,Saint Gurmeet Ram Rahim Singh Ji Insan,
Produced By: Cp Arora,Jitender Khurana Insan,Saint Gurmeet Ram Rahim Singh Ji Insan,
Music: Saint Gurmeet Ram Rahim Singh Ji Insan
Plot:

A teacher works hard to better a village that has poverty, unemployment, and a drug problem.

Cast:
Amardeep Insan as
Ashok Insan as
Divya Insan as
Ishwar Insan as
Jaswinder Insan as
Manoj Insan as
Rajesh Insan as
Rakesh Insan as
Raman Insan as
Randhir Insan as

 
Details

Name: Jattu Engineer 2017 Hindi 720p DvDRip x264 AAC ESub-Hon3y
Description:

Jattu Engineer 2017 Hindi 720p DvDRip x264 AAC ESub-Hon3y

Source: DvD9 @ LOST . Many Thanks!

Format                      : Matroska
Format version              : Version 4 / Version 2
File size                   : 1 023 MiB
Duration                    : 2 h 18 min
Overall bit rate            : 1 035 kb/s
Movie name                  : Jattu Engineer / 2017- [email protected] @ Hon3y

Video
ID                          : 1
Format                      : AVC
Format/Info                 : Advanced Video Codec
Format profile              : [email protected]
Format settings, CABAC      : Yes
Format settings, ReFrames   : 8 frames
Codec ID                    : V_MPEG4/ISO/AVC
Duration                    : 2 h 18 min
Bit rate                    : 937 kb/s
Width                       : 1 280 pixels
Height                      : 544 pixels
Display aspect ratio        : 2.35:1
Frame rate mode             : Constant
Frame rate                  : 23.976 (24000/1001) FPS

Audio
ID                          : 2
Format                      : AAC
Format/Info                 : Advanced Audio Codec
Format profile              : LC
Codec ID                    : A_AAC
Duration                    : 2 h 18 min
Bit rate                    : 96.0 kb/s
Channel(s)                  : 2 channels
Channel positions           : Front: L R
Sampling rate               : 48.0 kHz
Frame rate                  : 46.875 FPS (1024 spf)
Compression mode            : Lossy
Delay relative to video     : 9 ms
Stream size                 : 94.9 MiB (9%)
Language                    : Hindi
Default                     : Yes
Forced                      : No

Text
ID                          : 3
Format                      : UTF-8
Codec ID                    : S_TEXT/UTF8
Codec ID/Info               : UTF-8 Plain Text
Duration                    : 2 h 16 min
Bit rate                    : 54 b/s
Count of elements           : 1701
Stream size                 : 54.6 KiB (0%)
Language                    : English
Default                     : Yes
Forced                      : No

Menu
00:00:00.000                : en:Chapter 01
00:05:05.701                : en:Chapter 02
00:07:55.068                : en:Chapter 03
00:19:55.201                : en:Chapter 04
00:28:58.668                : en:Chapter 05
00:35:30.735                : en:Chapter 06
00:43:14.969                : en:Chapter 07
00:45:57.136                : en:Chapter 08
00:54:33.837                : en:Chapter 09
01:07:37.404                : en:Chapter 10
01:13:34.604                : en:Chapter 11
01:21:34.472                : en:Chapter 12
01:30:06.539                : en:Chapter 13
01:42:17.606                : en:Chapter 14
01:50:31.006                : en:Chapter 15
01:53:29.940                : en:Chapter 16
01:54:52.340                : en:Chapter 17
02:07:20.373                : en:Chapter 18

              

Category: Movies > Bollywood
Lang: Hindi
Total Size: 1,023.32 MB
Info Hash: 792a3fdf20776045868ed4b751b52f91c96c3459
Added By: Hon3y
Date Added: 16-09-2017 22:04:26
Views: 2,718
Hits: 451

 
WikiPedia:

Jattu Engineer
Poster
Directed by
Produced by
  • C.P. Arora
  • Jitender Khurana
Written by Gurmeet Ram Rahim Singh
Screenplay by Gurmeet Ram Rahim Singh
Starring
Music by Songs:
Gurmeet Ram Rahim Singh
Cinematography
  • Gurmeet Ram Rahim Singh
Edited by
Production
company
Hakikat Entertainment Pvt. Ltd.
Distributed by Hakikat Entertainment Pvt. Ltd.
Release date
  • 19 May 2017
Running time
139 minutes[1]
Country India
Language Punjabi

 
jattu engineer full movie
jattu engineer trailer
jattu engineer full movie online
jattu engineer full movie watch online
jattu engineer imdb
jattu engineer watch online
jattu engineer trailer download
jattu engineer movie download
jattu engineer full movie
jattu engineer download
jattu engineer movie trailer
jattu engineer movie trailer download

Note: At Hdmoviesfree.co we provide all movies of the world. We Upload Movies of all Categories Like  Action, Adventure, Animation, Biography, Bold, Collection, Comedy, Crime, Documentary, Drama, Family, Fantasy, History, Horror, Korean, Music, Musical, Mystery, Romance, Sci-Fi, Sport, Talk-Show, Thriller, War, Western, World cinema, Zombies,…..etc.

If there is any problem aobut downloading movie, wrong or missing file please let us know. Write your problem in comment box below we will fix it asap.

full hd 1080p punjabi movies free download,hd punjabi movie,punjabi full movie download,jattu engineer full movie 720p hd download moviescounter com

About Kriss

HI! I am kriss i love to watch movies, dramas, films, serials. Now its my job to share all movie with you. Here you will download any movie easily. All Movie I am posting here are for personal use only.

Leave a Reply